osu file format v14

[General]
AudioFilename: Turn It Up (Higher).mp3
AudioLeadIn: 1500
PreviewTime: 64469
Countdown: 0
SampleSet: Soft
StackLeniency: 0.7
Mode: 0
LetterboxInBreaks: 0
WidescreenStoryboard: 0

[Editor]
Bookmarks: 1728,152240
DistanceSpacing: 1
BeatDivisor: 4
GridSize: 4
TimelineZoom: 1

[Metadata]
Title:Turn It Up (Higher)
TitleUnicode:Turn It Up (Higher)
Artist:Fox Stevenson
ArtistUnicode:Fox Stevenson
Creator:Kyshiro
Version:Epic
Source:
Tags:Stan SB DnB Drum and bass
BeatmapID:298034
BeatmapSetID:115291

[Difficulty]
HPDrainRate:7
CircleSize:4
OverallDifficulty:8
ApproachRate:9
SliderMultiplier:1.6
SliderTickRate:2

[Events]
//Background and Video events
0,0,"dfghjkl.jpg",0,0
//Break Periods
//Storyboard Layer 0 (Background)
//Storyboard Layer 1 (Fail)
//Storyboard Layer 2 (Pass)
//Storyboard Layer 3 (Foreground)
//Storyboard Sound Samples
//Background Colour Transformations
3,100,163,162,255

[TimingPoints]
12,342.857142857143,4,2,0,25,1,0
1726,-133.333333333333,4,2,0,25,0,0
8240,-100,4,2,0,45,0,0
20240,-74.0740740740741,4,1,1,55,0,0
20412,-74.0740740740741,4,1,1,5,0,0
20583,-83.3333333333333,4,1,1,60,0,1
31212,-83.3333333333333,4,1,1,60,0,0
31383,-83.3333333333333,4,2,0,80,0,0
31554,-83.3333333333333,4,1,1,60,0,1
42526,-100,4,2,0,45,0,0
52126,-100,4,3,0,75,0,0
53497,-100,4,1,1,50,0,0
62069,-133.333333333333,4,2,0,60,0,0
64126,-100,4,1,1,60,0,0
64469,-83.3333333333333,4,1,1,60,0,1
75097,-83.3333333333333,4,1,1,60,0,0
75269,-83.3333333333333,4,2,0,80,0,0
75440,-83.3333333333333,4,1,1,60,0,1
86412,-100,4,2,0,45,0,0
96183,-100,4,2,1,60,0,0
97383,-100,4,1,1,50,0,0
105954,-133.333333333333,4,2,0,60,0,0
108012,-133.333333333333,4,1,1,60,0,0
108354,-83.3333333333333,4,1,1,60,0,1
118983,-83.3333333333333,4,1,1,60,0,0
119154,-83.3333333333333,4,2,0,80,0,0
119326,-83.3333333333333,4,1,1,60,0,1
130297,-100,4,1,1,50,0,0

[Colours]
Combo1 : 244,198,55
Combo2 : 19,234,67
Combo3 : 49,164,249
Combo4 : 238,53,100

[HitObjects]
80,152,1726,2,0,L|96:220,1,60.0000022888184,2|0,0:0|0:0,0:0:0:0:
172,176,2069,2,0,B|189:208|224:225|259:220|283:200,1,120.000004577637,2|0,0:0|0:0,0:0:0:0:
344,160,2583,1,0,0:0:0:0:
420,196,2754,2,0,L|448:320,1,120.000004577637,2|0,0:0|0:0,0:0:0:0:
380,364,3269,1,0,0:0:0:0:
304,328,3440,2,0,B|293:307|294:283|304:264,1,60.0000022888184,2|0,0:0|0:0,0:0:0:0:
216,196,3783,2,0,B|227:217|226:241|216:260,1,60.0000022888184,,,0:0:0:0:
132,168,4126,6,0,B|153:102|237:74|302:127|304:192,2,240.000009155274,2|0|2,0:0|0:0|0:0,0:0:0:0:
250,287,5840,1,0,0:0:0:0:
250,287,6012,2,0,L|377:295,1,120.000004577637,2|0,0:0|0:0,0:0:0:0:
445,257,6526,2,0,B|478:217|479:162|450:120|410:101,2,180.000006866455,2|2|0,0:0|0:0|0:0,0:0:0:0:
209,129,8240,5,0,0:0:0:0:
126,178,8412,1,8,0:0:0:0:
44,127,8583,1,0,0:0:0:0:
44,127,8669,1,0,0:0:0:0:
44,127,8754,2,0,B|27:101|31:67|50:45,1,80,0|8,0:0|0:0,0:0:0:0:
126,178,9097,1,0,0:0:0:0:
126,178,9183,1,0,0:0:0:0:
126,178,9269,2,0,B|143:204|139:238|120:260,1,80,0|8,0:0|0:0,0:0:0:0:
209,129,9612,6,0,B|246:95|300:92|341:121|358:161,1,160,4|8,0:0|0:0,0:0:0:0:
273,203,10126,1,0,0:0:0:0:
193,255,10297,2,0,L|104:248,1,80,,,0:0:0:0:
273,203,10640,1,8,0:0:0:0:
336,275,10812,2,0,B|354:304|351:339|331:364,1,80,,,0:0:0:0:
260,297,11154,6,0,L|423:246,1,160,,,0:0:0:0:
242,372,11669,2,0,B|213:365|193:343|186:317,1,80,,,0:0:0:0:
230,197,12012,1,8,0:0:0:0:
223,157,12097,1,0,0:0:0:0:
208,120,12183,1,0,0:0:0:0:
183,88,12269,1,0,0:0:0:0:
152,64,12354,6,0,B|127:43|94:40|66:51,1,80,,,0:0:0:0:
98,140,12697,1,8,0:0:0:0:
146,251,12869,1,0,0:0:0:0:
223,157,13040,2,0,L|240:77,1,80,,,0:0:0:0:
356,234,13383,2,0,L|339:314,1,80,8|0,0:0|0:0,0:0:0:0:
307,163,13726,6,0,B|345:137|395:143|429:175|439:214,1,160,0|8,0:0|0:0,0:0:0:0:
249,252,14240,1,0,0:0:0:0:
249,252,14326,1,0,0:0:0:0:
249,252,14412,2,0,L|169:235,1,80,,,0:0:0:0:
55,331,14754,2,0,L|135:314,1,80,8|0,0:0|0:0,0:0:0:0:
218,360,15097,5,2,0:0:0:0:
301,311,15269,1,0,0:0:0:0:
382,360,15440,1,8,0:0:0:0:
465,311,15612,1,0,0:0:0:0:
386,257,15783,2,0,L|307:237,1,80,2|0,0:0|0:0,0:0:0:0:
108,271,16126,2,0,L|187:291,1,80,8|0,0:0|0:0,0:0:0:0:
301,151,16469,6,0,L|222:131,1,80,2|0,0:0|0:0,0:0:0:0:
23,165,16812,2,0,L|102:185,1,80,8|0,0:0|0:0,0:0:0:0:
200,265,17154,1,2,0:0:0:0:
287,223,17326,1,0,0:0:0:0:
366,276,17497,2,0,B|382:304|381:336|368:362,1,80,8|0,0:0|0:0,0:0:0:0:
282,316,17840,5,2,0:0:0:0:
255,345,17926,1,0,0:0:0:0:
218,361,18012,1,2,0:0:0:0:
178,360,18097,1,0,0:0:0:0:
142,344,18183,1,2,0:0:0:0:
115,315,18269,1,0,0:0:0:0:
103,277,18354,1,2,0:0:0:0:
106,238,18440,1,0,0:0:0:0:
125,203,18526,2,0,L|178:186,3,40,2|0|2|0,0:0|0:0|0:0|0:0,0:0:0:0:
192,99,18869,2,0,L|139:116,3,40,2|0|2|0,0:0|0:0|0:0|0:0,0:0:0:0:
243,166,19212,6,0,L|295:148,3,40,2|0|2|0,0:0|0:0|0:0|0:0,0:0:0:0:
346,91,19554,2,0,B|359:80|365:64|363:48,1,40,2|0,0:0|0:0,0:0:0:0:
384,149,19726,2,0,B|401:146|414:134|420:120,1,40,2|0,0:0|0:0,0:0:0:0:
388,219,19897,2,0,B|404:224|421:221|434:212,1,40,2|0,0:0|0:0,0:0:0:0:
357,282,20069,2,0,B|368:295|384:301|400:299,1,40,2|0,0:0|0:0,0:0:0:0:
293,319,20240,6,0,B|266:290|228:279|192:284,1,108.000000411987,8|0,1:0|0:0,0:0:0:0:
54,198,20583,6,0,B|112:236|189:216|222:158,1,191.999994140625,4|8,0:0|0:0,0:0:0:0:
119,98,21097,1,0,0:0:0:0:
119,98,21183,1,0,0:0:0:0:
119,98,21269,2,0,L|13:105,1,95.9999970703126,,,0:0:0:0:
221,159,21612,2,0,L|327:152,1,95.9999970703126,8|0,0:0|0:0,0:0:0:0:
194,84,21954,6,0,B|140:105|118:173|157:227|209:237,1,191.999994140625,0|8,0:0|0:0,0:0:0:0:
47,354,22469,2,0,B|101:333|123:265|84:211|32:201,1,191.999994140625,,,0:0:0:0:
18,279,22983,2,0,L|214:275,1,191.999994140625,8|0,0:0|0:0,0:0:0:0:
308,335,23497,5,0,0:0:0:0:
308,335,23583,1,0,0:0:0:0:
308,335,23669,2,0,B|338:314|377:316|404:337,1,95.9999970703126,8|0,0:0|0:0,0:0:0:0:
486,244,24012,2,0,B|456:265|417:263|390:242,1,95.9999970703126,,,0:0:0:0:
440,169,24354,1,8,0:0:0:0:
335,297,24526,1,0,0:0:0:0:
256,154,24697,6,0,B|245:116|264:77|298:61,1,95.9999970703126,,,0:0:0:0:
349,140,25040,1,8,0:0:0:0:
256,282,25212,1,0,0:0:0:0:
180,131,25383,1,0,0:0:0:0:
343,237,25554,1,0,0:0:0:0:
174,228,25726,1,8,0:0:0:0:
267,86,25897,1,0,0:0:0:0:
256,282,26069,6,0,B|226:329|166:344|114:320|90:278,1,191.999994140625,0|8,0:0|0:0,0:0:0:0:
255,183,26583,1,0,0:0:0:0:
255,183,26669,1,0,0:0:0:0:
255,183,26754,2,0,L|359:173,1,95.9999970703126,,,0:0:0:0:
174,228,27097,2,0,L|70:238,1,95.9999970703126,8|0,0:0|0:0,0:0:0:0:
0,98,27440,5,0,0:0:0:0:
74,158,27612,1,0,0:0:0:0:
168,141,27783,1,8,0:0:0:0:
209,54,27954,2,0,B|250:16|311:14|356:47|374:91,1,191.999994140625,,,0:0:0:0:
168,141,28469,2,0,B|134:129|113:97|114:64,1,95.9999970703126,8|0,0:0|0:0,0:0:0:0:
280,130,28812,5,0,0:0:0:0:
326,213,28983,1,0,0:0:0:0:
269,290,29154,2,0,L|171:284,1,95.9999970703126,8|0,0:0|0:0,0:0:0:0:
280,130,29497,2,0,L|378:136,1,95.9999970703126,,,0:0:0:0:
326,213,29840,2,0,L|228:207,1,95.9999970703126,8|0,0:0|0:0,0:0:0:0:
337,53,30183,6,0,L|435:59,1,95.9999970703126,,,0:0:0:0:
269,290,30526,2,0,L|171:284,1,95.9999970703126,8|0,0:0|0:0,0:0:0:0:
243,138,30869,1,0,0:0:0:0:
261,134,30954,1,8,0:0:0:0:
280,130,31040,2,0,L|378:136,1,95.9999970703126,0|8,0:0|0:0,0:0:0:0:
282,225,31383,1,2,0:0:0:0:
163,187,31554,6,0,B|132:142|143:80|188:45|236:44,1,191.999994140625,4|8,0:0|0:0,0:0:0:0:
282,225,32069,1,0,0:0:0:0:
282,225,32154,1,0,0:0:0:0:
282,225,32240,2,0,B|312:245|351:238|374:213,1,95.9999970703126,,,0:0:0:0:
163,187,32583,2,0,B|133:167|94:174|71:199,1,95.9999970703126,8|0,0:0|0:0,0:0:0:0:
347,290,32926,5,0,0:0:0:0:
413,142,33097,1,0,0:0:0:0:
246,164,33269,1,8,0:0:0:0:
423,237,33440,1,0,0:0:0:0:
320,104,33612,1,0,0:0:0:0:
262,253,33783,1,0,0:0:0:0:
413,142,33954,2,0,B|433:113|431:76|410:51,1,95.9999970703126,8|0,0:0|0:0,0:0:0:0:
297,6,34297,6,0,B|245:59|164:63|107:24,1,191.999994140625,0|8,0:0|0:0,0:0:0:0:
20,91,34812,1,0,0:0:0:0:
120,144,34983,2,0,B|149:167|159:203|151:235,1,95.9999970703126,,,0:0:0:0:
255,281,35326,2,0,B|248:247|262:215|287:195,1,95.9999970703126,8|0,0:0|0:0,0:0:0:0:
341,298,35669,6,0,B|331:352|279:387|222:376|189:341,1,191.999994140625,0|8,0:0|0:0,0:0:0:0:
154,232,36183,1,0,0:0:0:0:
258,188,36354,2,0,B|272:223|268:259|251:289,1,95.9999970703126,,,0:0:0:0:
154,232,36697,2,0,B|140:197|144:159|161:129,1,95.9999970703126,8|0,0:0|0:0,0:0:0:0:
253,76,37040,6,0,B|286:137|366:155|421:113,1,191.999994140625,0|8,0:0|0:0,0:0:0:0:
354,18,37554,1,0,0:0:0:0:
222,154,37726,2,0,L|150:230,1,95.9999970703126,,,0:0:0:0:
450,289,38069,2,0,L|416:193,1,95.9999970703126,8|0,0:0|0:0,0:0:0:0:
242,257,38412,5,0,0:0:0:0:
353,282,38583,1,0,0:0:0:0:
321,171,38754,1,8,0:0:0:0:
207,148,38926,2,0,B|154:166|120:216|120:271|144:313,1,191.999994140625,,,0:0:0:0:
321,171,39440,2,0,B|374:153|408:103|408:48|384:6,1,191.999994140625,8|0,0:0|0:0,0:0:0:0:
281,60,39954,5,0,0:0:0:0:
418,194,40126,2,0,L|512:173,1,95.9999970703126,8|0,0:0|0:0,0:0:0:0:
281,60,40469,2,0,L|187:81,1,95.9999970703126,,,0:0:0:0:
153,291,40812,1,8,0:0:0:0:
244,261,40983,1,0,0:0:0:0:
244,165,41154,5,0,0:0:0:0:
152,135,41326,1,0,0:0:0:0:
244,261,41497,2,0,B|280:263|311:243|327:214,1,95.9999970703126,8|0,0:0|0:0,0:0:0:0:
96,213,41840,1,0,0:0:0:0:
96,213,41926,1,0,0:0:0:0:
96,213,42012,1,0,0:0:0:0:
244,165,42183,2,0,L|332:112,1,95.9999970703126,8|0,0:0|0:0,0:0:0:0:
501,113,42526,6,0,B|504:161|474:203|430:220|389:212,1,160,4|8,0:0|0:0,0:0:0:0:
337,285,43040,1,0,0:0:0:0:
258,229,43212,1,2,0:0:0:0:
182,288,43383,1,0,0:0:0:0:
182,288,43469,1,0,0:0:0:0:
182,288,43554,2,0,B|166:316|170:350|190:374,1,80,8|0,0:0|0:0,0:0:0:0:
258,229,43897,6,0,B|274:201|270:167|250:143,1,80,,,0:0:0:0:
111,202,44240,2,0,L|193:194,1,80,8|0,0:0|0:0,0:0:0:0:
325,108,44583,2,0,L|161:124,1,160,2|8,0:0|0:0,0:0:0:0:
72,98,45097,1,0,0:0:0:0:
72,98,45183,1,0,0:0:0:0:
72,98,45269,2,0,B|50:77|44:48|52:21,1,80,,,0:0:0:0:
145,41,45612,5,8,0:0:0:0:
225,92,45783,1,2,0:0:0:0:
240,128,45869,1,0,0:0:0:0:
239,168,45954,1,2,0:0:0:0:
221,203,46040,1,0,0:0:0:0:
190,228,46126,1,0,0:0:0:0:
142,143,46297,1,8,0:0:0:0:
308,85,46469,1,0,0:0:0:0:
275,257,46640,6,0,B|278:288|299:313|326:322,1,80,,,0:0:0:0:
372,238,46983,1,8,0:0:0:0:
190,228,47154,1,0,0:0:0:0:
190,228,47240,1,0,0:0:0:0:
190,228,47326,2,0,L|105:246,1,80,2|0,0:0|0:0,0:0:0:0:
295,254,47669,2,0,L|380:236,1,80,8|0,0:0|0:0,0:0:0:0:
190,228,48012,6,0,L|24:262,1,160,0|8,0:0|0:0,0:0:0:0:
3,351,48526,1,0,0:0:0:0:
94,380,48697,1,2,0:0:0:0:
187,357,48869,1,0,0:0:0:0:
187,357,48954,1,0,0:0:0:0:
187,357,49040,2,0,B|215:340|230:312|231:282,1,80,8|0,0:0|0:0,0:0:0:0:
257,200,49383,6,0,B|236:243|247:294|282:326|323:335,1,160,0|8,0:0|0:0,0:0:0:0:
345,241,49897,2,0,B|366:198|355:147|320:115|279:106,1,160,,,0:0:0:0:
196,128,50412,2,0,L|111:127,1,80,8|0,0:0|0:0,0:0:0:0:
48,70,50754,5,0,0:0:0:0:
131,207,50926,1,0,0:0:0:0:
131,207,51012,1,0,0:0:0:0:
131,207,51097,2,0,B|145:236|144:268|131:295,1,80,8|0,0:0|0:0,0:0:0:0:
225,197,51440,1,2,0:0:0:0:
245,163,51526,1,0,0:0:0:0:
278,140,51612,1,2,0:0:0:0:
316,131,51697,1,0,0:0:0:0:
356,138,51783,1,8,0:0:0:0:
317,226,51954,1,0,0:0:0:0:
183,117,52126,6,0,B|172:89|178:60|195:38,1,80,,,0:0:0:0:
317,226,52469,1,2,0:0:0:0:
265,306,52640,1,0,0:0:0:0:
230,324,52726,1,0,0:0:0:0:
190,327,52812,1,0,0:0:0:0:
152,316,52897,1,0,0:0:0:0:
121,290,52983,1,2,0:0:0:0:
205,228,53154,2,0,L|246:210,1,40,0|2,0:0|0:0,0:0:0:0:
134,177,53326,2,0,L|93:195,1,40,0|2,0:0|0:0,0:0:0:0:
205,228,53497,6,0,B|231:191|228:143|200:108|163:95,1,160,4|8,0:0|0:0,0:0:0:0:
73,60,54012,1,0,0:0:0:0:
73,60,54097,1,0,0:0:0:0:
73,60,54183,2,0,L|242:41,1,160,0|8,0:0|0:0,0:0:0:0:
319,1,54697,1,0,0:0:0:0:
393,62,54869,6,0,B|411:89|411:121|398:147,1,80,,,0:0:0:0:
309,222,55212,2,0,B|291:195|291:163|304:137,1,80,8|0,0:0|0:0,0:0:0:0:
391,246,55554,1,0,0:0:0:0:
371,280,55640,1,0,0:0:0:0:
337,301,55726,1,0,0:0:0:0:
298,305,55812,1,0,0:0:0:0:
261,291,55897,1,8,0:0:0:0:
193,222,56069,1,0,0:0:0:0:
110,270,56240,6,0,B|88:299|89:338|109:365,1,80,,,0:0:0:0:
193,222,56583,2,0,B|215:193|214:154|194:127,1,80,8|0,0:0|0:0,0:0:0:0:
111,171,56926,1,0,0:0:0:0:
291,209,57097,1,0,0:0:0:0:
291,209,57183,1,0,0:0:0:0:
291,209,57269,2,0,L|378:191,1,80,8|0,0:0|0:0,0:0:0:0:
427,115,57612,5,0,0:0:0:0:
338,2,57783,1,0,0:0:0:0:
283,134,57954,1,8,0:0:0:0:
415,32,58126,1,0,0:0:0:0:
272,52,58297,1,0,0:0:0:0:
359,166,58469,1,0,0:0:0:0:
272,52,58640,2,0,B|245:33|212:32|185:47,1,80,8|0,0:0|0:0,0:0:0:0:
94,170,58983,6,0,B|146:194|206:167|225:114,1,160,0|8,0:0|0:0,0:0:0:0:
134,81,59497,1,0,0:0:0:0:
134,81,59583,1,0,0:0:0:0:
134,81,59669,2,0,L|45:78,1,80,,,0:0:0:0:
251,209,60012,2,0,L|340:212,1,80,8|0,0:0|0:0,0:0:0:0:
511,241,60354,6,0,B|498:285|456:313|410:309|378:285,1,160,0|8,0:0|0:0,0:0:0:0:
294,329,60869,1,0,0:0:0:0:
294,329,60954,1,0,0:0:0:0:
294,329,61040,2,0,B|267:308|230:310|205:330,1,80,,,0:0:0:0:
48,227,61383,1,8,0:0:0:0:
43,324,61554,1,0,0:0:0:0:
129,282,61726,1,0,0:0:0:0:
311,219,62069,6,0,L|382:223,1,60.0000022888184,2|0,0:0|0:0,0:0:0:0:
312,142,62412,2,0,L|170:134,1,120.000004577637,2|2,0:0|0:0,0:0:0:0:
110,154,62926,1,0,0:0:0:0:
67,225,63097,2,0,B|55:249|60:276|77:294,1,60.0000022888184,2|0,0:0|0:0,0:0:0:0:
140,326,63440,1,2,0:0:0:0:
202,269,63612,1,0,0:0:0:0:
268,320,63783,2,0,B|283:338|283:363|272:382,1,60.0000022888184,2|0,0:0|0:0,0:0:0:0:
203,269,64126,6,0,B|183:246|182:214|197:189,1,80,8|0,0:0|0:0,0:0:0:0:
285,154,64469,6,0,B|239:186|179:183|136:149|118:103,1,191.999994140625,4|8,0:0|0:0,0:0:0:0:
224,56,64983,2,0,B|270:24|330:27|373:61|391:107,1,191.999994140625,,,0:0:0:0:
385,214,65497,1,8,0:0:0:0:
285,154,65669,5,0,0:0:0:0:
285,154,65754,1,0,0:0:0:0:
285,154,65840,2,0,B|262:128|261:91|281:65,1,95.9999970703126,,,0:0:0:0:
385,214,66183,2,0,B|408:240|409:277|389:303,1,95.9999970703126,8|0,0:0|0:0,0:0:0:0:
232,243,66526,2,0,L|328:261,1,95.9999970703126,,,0:0:0:0:
349,110,66869,2,0,L|157:74,1,191.999994140625,8|0,0:0|0:0,0:0:0:0:
59,131,67383,5,0,0:0:0:0:
59,131,67469,1,0,0:0:0:0:
59,131,67554,2,0,B|37:163|44:205|70:230,1,95.9999970703126,8|0,0:0|0:0,0:0:0:0:
245,260,67897,1,0,0:0:0:0:
130,173,68069,1,0,0:0:0:0:
112,315,68240,1,8,0:0:0:0:
212,183,68412,1,0,0:0:0:0:
80,239,68583,6,0,B|46:251|27:285|31:318,1,95.9999970703126,,,0:0:0:0:
196,326,68926,2,0,B|223:350|262:349|288:328,1,95.9999970703126,8|0,0:0|0:0,0:0:0:0:
212,183,69269,2,0,B|219:124|169:73|102:80|67:120,1,191.999994140625,0|8,0:0|0:0,0:0:0:0:
245,260,69783,5,0,0:0:0:0:
245,260,69869,1,0,0:0:0:0:
245,260,69954,2,0,L|340:268,1,95.9999970703126,,,0:0:0:0:
196,326,70297,2,0,L|101:318,1,95.9999970703126,8|0,0:0|0:0,0:0:0:0:
11,176,70640,1,0,0:0:0:0:
92,219,70812,1,0,0:0:0:0:
172,174,70983,1,8,0:0:0:0:
178,82,71154,1,0,0:0:0:0:
104,27,71326,6,0,L|3:18,1,95.9999970703126,0|0,0:0|0:0,0:0:0:0:
173,174,71669,2,0,L|274:183,1,95.9999970703126,8|0,0:0|0:0,0:0:0:0:
277,87,72012,1,0,0:0:0:0:
220,261,72183,1,0,0:0:0:0:
398,225,72354,2,0,B|421:200|424:163|408:136,1,95.9999970703126,8|0,0:0|0:0,0:0:0:0:
381,43,72697,6,0,B|373:100|403:153|454:178|504:174,1,191.999994140625,0|8,0:0|0:0,0:0:0:0:
446,314,73212,1,0,0:0:0:0:
326,351,73383,2,0,L|220:340,1,95.9999970703126,,,0:0:0:0:
116,189,73726,2,0,L|222:200,1,95.9999970703126,8|0,0:0|0:0,0:0:0:0:
349,74,74069,6,0,L|253:64,1,95.9999970703126,,,0:0:0:0:
369,217,74412,2,0,L|464:226,1,95.9999970703126,8|0,0:0|0:0,0:0:0:0:
295,150,74754,1,8,0:0:0:0:
273,192,74840,1,8,0:0:0:0:
273,240,74926,1,2,3:0:0:0:
295,282,75012,1,0,0:0:0:0:
333,311,75097,2,0,B|368:326|406:317|432:292,1,95.9999970703126,8|2,0:0|0:0,0:0:0:0:
273,192,75440,6,0,B|227:163|169:169|127:202|110:246,1,191.999994140625,4|8,0:0|0:0,0:0:0:0:
74,331,75954,1,0,0:0:0:0:
19,251,76126,2,0,L|8:153,1,95.9999970703126,,,0:0:0:0:
92,31,76469,1,8,0:0:0:0:
162,95,76640,1,0,0:0:0:0:
257,103,76812,5,0,0:0:0:0:
338,53,76983,2,0,B|384:22|442:26|485:59|503:103,1,191.999994140625,,,0:0:0:0:
372,229,77497,2,0,B|360:195|374:160|402:142,1,95.9999970703126,,,0:0:0:0:
466,214,77840,2,0,L|276:244,1,191.999994140625,8|0,0:0|0:0,0:0:0:0:
187,206,78354,5,0,0:0:0:0:
187,206,78440,1,0,0:0:0:0:
187,206,78526,2,0,B|161:183|155:148|166:119,1,95.9999970703126,8|0,0:0|0:0,0:0:0:0:
100,226,78869,2,0,B|113:258|103:292|79:314,1,95.9999970703126,,,0:0:0:0:
14,251,79212,1,8,0:0:0:0:
151,351,79383,1,0,0:0:0:0:
301,266,79554,6,0,L|338:171,1,95.9999970703126,,,0:0:0:0:
185,87,79897,2,0,L|219:176,1,95.9999970703126,8|0,0:0|0:0,0:0:0:0:
245,33,80240,2,0,B|207:-6|144:-4|105:41|105:89,1,191.999994140625,0|8,0:0|0:0,0:0:0:0:
219,176,80754,1,0,0:0:0:0:
309,141,80926,6,0,B|339:123|350:85|336:55,1,95.9999970703126,,,0:0:0:0:
220,176,81269,2,0,B|191:196|182:232|193:262,1,95.9999970703126,8|0,0:0|0:0,0:0:0:0:
286,242,81612,2,0,L|413:226,1,95.9999970703126,,,0:0:0:0:
430,147,81954,1,8,0:0:0:0:
333,142,82126,6,0,L|132:167,1,191.999994140625,,,0:0:0:0:
51,133,82640,2,0,B|26:107|23:69|40:40,1,95.9999970703126,8|0,0:0|0:0,0:0:0:0:
142,166,82983,2,0,B|167:192|170:230|153:259,1,95.9999970703126,,,0:0:0:0:
74,222,83326,1,8,0:0:0:0:
114,76,83497,1,0,0:0:0:0:
253,142,83669,6,0,B|300:170|359:159|395:117|401:70,1,191.999994140625,0|8,0:0|0:0,0:0:0:0:
304,60,84183,1,0,0:0:0:0:
312,232,84354,2,0,L|315:329,1,95.9999970703126,,,0:0:0:0:
512,235,84697,2,0,L|438:174,1,95.9999970703126,8|0,0:0|0:0,0:0:0:0:
74,174,85040,6,0,L|0:235,1,95.9999970703126,,,0:0:0:0:
197,327,85383,2,0,L|200:232,1,95.9999970703126,8|0,0:0|0:0,0:0:0:0:
95,344,85726,1,8,0:0:0:0:
142,349,85812,1,8,0:0:0:0:
190,354,85897,1,0,0:0:0:0:
238,359,85983,1,0,0:0:0:0:
285,364,86069,2,0,B|322:361|349:330|349:295,1,95.9999970703126,8|0,0:0|0:0,0:0:0:0:
407,225,86412,6,0,B|369:196|319:196|280:222|262:259,1,160,4|8,0:0|0:0,0:0:0:0:
348,301,86926,1,0,0:0:0:0:
443,314,87097,2,0,L|512:250,1,80,2|0,0:0|0:0,0:0:0:0:
407,225,87440,2,0,L|462:45,1,160,8|0,0:0|0:0,0:0:0:0:
376,15,87954,5,0,0:0:0:0:
290,59,88126,2,0,B|266:82|265:118|285:143,1,80,8|0,0:0|0:0,0:0:0:0:
260,246,88469,2,0,B|255:200|220:164|175:156|137:171,1,160,2|8,0:0|0:0,0:0:0:0:
168,261,88983,1,0,0:0:0:0:
242,320,89154,6,0,L|328:322,1,80,,,0:0:0:0:
168,261,89497,2,0,L|82:259,1,80,8|0,0:0|0:0,0:0:0:0:
9,145,89840,1,2,0:0:0:0:
96,184,90012,1,0,0:0:0:0:
188,159,90183,1,8,0:0:0:0:
236,76,90354,1,0,0:0:0:0:
164,35,90526,6,0,L|306:114,1,160,0|8,0:0|0:0,0:0:0:0:
377,174,91040,1,0,0:0:0:0:
447,108,91212,2,0,B|465:79|457:42|432:22,1,80,2|0,0:0|0:0,0:0:0:0:
377,174,91554,2,0,B|359:203|367:240|392:260,1,80,8|0,0:0|0:0,0:0:0:0:
476,262,91897,6,0,B|469:309|433:345|387:353|348:339,1,160,0|8,0:0|0:0,0:0:0:0:
296,267,92412,1,0,0:0:0:0:
210,309,92583,2,0,B|191:330|187:359|196:384,1,80,2|0,0:0|0:0,0:0:0:0:
129,281,92926,2,0,B|141:233|118:185|74:162|31:166,1,160,8|0,0:0|0:0,0:0:0:0:
37,261,93440,5,0,0:0:0:0:
210,309,93612,1,8,0:0:0:0:
280,244,93783,2,0,B|297:219|300:190|290:164,1,80,0|2,0:0|0:0,0:0:0:0:
200,198,94126,1,0,0:0:0:0:
225,105,94297,2,0,L|384:166,1,160,8|0,0:0|0:0,0:0:0:0:
461,119,94812,5,0,0:0:0:0:
501,205,94983,2,0,B|514:234|504:267|480:285,1,80,8|0,0:0|0:0,0:0:0:0:
319,308,95326,1,2,0:0:0:0:
245,246,95497,1,0,0:0:0:0:
163,296,95669,2,0,B|145:321|145:353|160:378,1,80,8|0,0:0|0:0,0:0:0:0:
245,246,96012,5,0,0:0:0:0:
159,203,96183,2,0,B|124:199|93:220|81:250,2,80,8|0|0,1:0|0:0|0:0,0:0:0:0:
275,147,96697,2,0,L|367:163,1,80,8|0,1:0|0:0,0:0:0:0:
160,203,97040,2,0,L|68:187,1,80,8|0,1:0|0:0,0:0:0:0:
193,132,97383,6,0,B|237:153|255:205|235:251|198:272,1,160,4|8,0:0|0:0,0:0:0:0:
314,211,97897,1,0,0:0:0:0:
314,211,97983,1,0,0:0:0:0:
314,211,98069,2,0,B|343:192|380:197|404:218,1,80,,,0:0:0:0:
356,298,98412,1,8,0:0:0:0:
264,325,98583,1,0,0:0:0:0:
183,273,98754,6,0,L|160:191,1,80,,,0:0:0:0:
266,116,99097,2,0,L|244:193,1,80,8|0,0:0|0:0,0:0:0:0:
208,60,99440,1,0,0:0:0:0:
241,39,99525,1,0,0:0:0:0:
281,36,99611,1,0,0:0:0:0:
317,53,99697,1,0,0:0:0:0:
341,84,99783,2,0,B|357:111|352:143|332:165,1,80,8|0,0:0|0:0,0:0:0:0:
432,163,100126,6,0,L|285:228,1,160,0|8,0:0|0:0,0:0:0:0:
189,217,100640,1,0,0:0:0:0:
189,217,100726,1,0,0:0:0:0:
189,217,100812,2,0,B|164:196|159:162|172:135,1,80,,,0:0:0:0:
118,81,101154,1,8,0:0:0:0:
244,164,101326,1,0,0:0:0:0:
252,16,101497,5,0,0:0:0:0:
156,159,101669,1,0,0:3:0:0:
291,91,101841,1,8,0:0:0:0:
166,10,102012,1,0,0:3:0:0:
291,91,102183,2,0,B|320:109|355:102|377:80,1,80,,,0:0:0:0:
118,81,102526,2,0,B|89:63|54:70|32:92,1,80,8|0,0:0|0:0,0:0:0:0:
177,175,102869,6,0,L|223:18,1,160,0|8,0:0|0:0,0:0:0:0:
95,164,103383,1,0,0:0:0:0:
95,164,103469,1,0,0:0:0:0:
95,164,103554,2,0,L|72:242,1,80,,,0:0:0:0:
205,317,103897,1,8,0:0:0:0:
286,265,104069,1,0,0:0:0:0:
372,305,104240,6,0,B|393:326|397:357|386:382,1,80,,,0:0:0:0:
293,357,104583,1,8,0:0:0:0:
286,265,104754,2,0,B|306:220|354:196|402:204|434:232,1,160,,,0:0:0:0:
293,357,105269,2,0,L|202:341,1,80,8|0,0:0|0:0,0:0:0:0:
159,264,105612,1,0,0:0:0:0:
348,104,105954,6,0,B|363:124|363:150|352:171,1,60.0000022888184,2|0,0:0|0:0,0:0:0:0:
422,201,106297,2,0,L|287:220,1,120.000004577637,2|2,0:0|0:0,0:0:0:0:
238,163,106812,1,0,0:0:0:0:
175,218,106983,2,0,B|159:239|161:267|175:287,1,60.0000022888184,2|0,0:0|0:0,0:0:0:0:
243,313,107326,2,0,L|308:308,1,60.0000022888184,2|0,0:0|0:0,0:0:0:0:
94,275,107669,2,0,L|29:280,1,60.0000022888184,2|0,0:0|0:0,0:0:0:0:
0,180,108012,1,8,0:0:0:0:
256,34,108354,6,0,B|307:60|329:119|311:173|272:204,1,191.999994140625,4|8,0:0|0:0,0:0:0:0:
217,123,108869,1,0,0:0:0:0:
387,181,109040,2,0,L|498:170,1,95.9999970703126,,,0:0:0:0:
459,264,109383,1,8,0:0:0:0:
363,263,109554,2,0,B|309:247|279:189|300:132|343:106,1,191.999994140625,,,0:0:0:0:
170,9,110069,6,0,B|224:25|254:83|233:140|190:166,1,191.999994140625,8|0,0:0|0:0,0:0:0:0:
32,203,110583,1,0,0:0:0:0:
54,111,110754,2,0,L|158:89,1,95.9999970703126,8|0,0:0|0:0,0:0:0:0:
275,192,111097,5,0,0:0:0:0:
348,253,111269,1,0,0:0:0:0:
439,220,111441,1,8,0:0:0:0:
455,125,111611,1,0,0:0:0:0:
378,66,111783,2,0,L|282:73,1,95.9999970703126,,,0:0:0:0:
163,278,112126,2,0,L|259:271,1,95.9999970703126,8|0,0:0|0:0,0:0:0:0:
414,163,112469,6,0,L|318:170,1,95.9999970703126,,,0:0:0:0:
199,375,112812,2,0,L|295:368,1,95.9999970703126,8|0,0:0|0:0,0:0:0:0:
462,284,113154,1,0,0:0:0:0:
378,331,113326,1,0,0:0:0:0:
301,273,113497,2,0,B|283:241|292:203|318:181,1,95.9999970703126,8|0,0:0|0:0,0:0:0:0:
404,151,113840,6,0,L|199:159,1,191.999994140625,0|8,0:0|0:0,0:0:0:0:
119,133,114354,1,0,0:0:0:0:
119,133,114440,1,0,0:0:0:0:
119,133,114526,2,0,B|96:105|96:67|114:40,1,95.9999970703126,,,0:0:0:0:
199,82,114869,1,8,0:0:0:0:
206,176,115040,2,0,B|182:224|128:246|77:232|46:197,1,191.999994140625,,,0:0:0:0:
119,133,115554,5,8,0:0:0:0:
221,270,115726,2,0,L|282:351,1,95.9999970703126,,,0:0:0:0:
10,375,116069,2,0,L|54:277,1,95.9999970703126,0|8,0:0|0:0,0:0:0:0:
127,202,116412,1,0,0:0:0:0:
221,270,116583,6,0,B|256:291|300:282|325:253,1,95.9999970703126,,,0:0:0:0:
262,181,116926,1,8,0:0:0:0:
185,335,117097,1,0,0:0:0:0:
358,326,117269,1,0,0:0:0:0:
178,236,117440,1,0,0:0:0:0:
273,380,117611,1,8,0:0:0:0:
352,225,117783,1,0,0:0:0:0:
185,334,117954,6,0,B|149:341|115:324|98:296,1,95.9999970703126,,,0:0:0:0:
352,226,118297,2,0,B|388:219|422:236|439:264,1,95.9999970703126,8|0,0:0|0:0,0:0:0:0:
259,278,118640,1,8,0:0:0:0:
232,238,118725,1,8,0:0:0:0:
223,191,118811,1,0,0:0:0:0:
234,145,118897,1,0,0:0:0:0:
262,106,118983,2,0,B|290:81|328:75|361:87,1,95.9999970703126,8|2,0:0|0:0,0:0:0:0:
232,238,119326,6,0,B|192:275|135:280|88:255|63:216,1,191.999994140625,4|8,0:0|0:0,0:0:0:0:
159,151,119840,1,0,0:0:0:0:
274,141,120012,2,0,L|352:209,1,95.9999970703126,,,0:0:0:0:
421,116,120354,1,8,0:0:0:0:
332,41,120526,2,0,B|272:5|194:31|167:96,1,191.999994140625,,,0:0:0:0:
346,204,121040,6,0,B|381:220|421:213|448:189,1,95.9999970703126,8|0,0:0|0:0,0:0:0:0:
215,144,121383,2,0,B|180:128|140:135|113:159,1,95.9999970703126,,,0:0:0:0:
228,251,121726,2,0,L|338:86,1,191.999994140625,8|0,0:0|0:0,0:0:0:0:
492,65,122240,5,0,0:0:0:0:
492,65,122326,1,0,0:0:0:0:
492,65,122412,1,8,0:0:0:0:
512,157,122583,1,0,0:0:0:0:
478,245,122754,1,0,0:0:0:0:
400,299,122926,1,0,0:0:0:0:
306,300,123097,2,0,L|206:275,1,95.9999970703126,8|0,0:0|0:0,0:0:0:0:
145,102,123440,6,0,L|245:127,1,95.9999970703126,,,0:0:0:0:
393,232,123783,2,0,L|293:207,1,95.9999970703126,8|0,0:0|0:0,0:0:0:0:
232,34,124126,2,0,L|332:59,1,95.9999970703126,,,0:0:0:0:
192,210,124469,1,8,0:0:0:0:
147,227,124554,1,0,0:0:0:0:
100,223,124640,1,0,0:0:0:0:
59,199,124726,1,0,0:0:0:0:
32,159,124812,6,0,B|20:124|29:87|53:62,1,95.9999970703126,,,0:0:0:0:
291,165,125154,1,8,0:0:0:0:
245,8,125326,1,0,0:0:0:0:
132,127,125497,1,0,0:0:0:0:
313,73,125669,1,0,0:0:0:0:
154,34,125841,1,8,0:0:0:0:
291,165,126012,6,0,B|343:178|395:149|416:98|405:53,1,191.999994140625,0|0,0:0|0:0,0:0:0:0:
104,74,126526,1,8,0:0:0:0:
64,160,126697,1,0,0:0:0:0:
74,254,126868,1,0,0:0:0:0:
132,329,127040,1,0,0:0:0:0:
220,364,127211,1,8,0:0:0:0:
314,347,127383,1,0,0:0:0:0:
389,285,127554,6,0,B|409:255|402:216|377:193,1,95.9999970703126,,,0:0:0:0:
123,99,127897,2,0,B|103:129|110:168|135:191,1,95.9999970703126,8|0,0:0|0:0,0:0:0:0:
349,59,128240,2,0,B|319:39|280:46|257:71,1,95.9999970703126,,,0:0:0:0:
163,325,128583,2,0,B|193:345|232:338|255:313,1,95.9999970703126,8|0,0:0|0:0,0:0:0:0:
357,155,128926,6,0,L|349:55,1,95.9999970703126,,,0:0:0:0:
293,293,129269,2,0,L|388:285,1,95.9999970703126,,,0:0:0:0:
155,229,129612,2,0,L|162:324,1,95.9999970703126,,,0:0:0:0:
219,91,129955,2,0,L|123:98,1,95.9999970703126,,,0:0:0:0:
155,229,130297,6,0,B|189:276|256:281|298:242,1,160,,,0:0:0:0:
367,150,130812,1,0,0:0:0:0:
367,150,130897,1,0,0:0:0:0:
367,150,130983,2,0,B|377:123|372:95|357:74,1,80,,,0:0:0:0:
249,144,131326,2,0,B|239:170|243:198|258:219,1,80,,,0:0:0:0:
339,270,131669,6,0,B|313:310|265:327|220:315|191:286,1,160,0|8,0:0|0:0,0:0:0:0:
129,227,132183,1,0,0:0:0:0:
58,292,132354,2,0,L|46:372,1,80,,,0:0:0:0:
129,227,132697,2,0,L|141:147,1,80,8|0,0:0|0:0,0:0:0:0:
214,86,133040,5,0,0:0:0:0:
280,155,133212,2,0,B|321:196|389:190|422:143,1,160,,,0:0:0:0:
512,268,133726,2,0,B|471:227|403:233|370:280,1,160,0|8,0:0|0:0,0:0:0:0:
285,234,134240,1,0,0:0:0:0:
218,304,134412,5,0,0:0:0:0:
139,249,134583,1,0,0:0:0:0:
139,249,134669,1,0,0:0:0:0:
139,249,134754,2,0,B|120:224|121:190|140:166,1,80,8|0,0:0|0:0,0:0:0:0:
146,157,135012,2,0,B|160:132|157:102|141:81,1,80,8|0,0:0|0:0,0:0:0:0:
126,67,135269,1,0,0:0:0:0:
209,20,135440,2,0,L|304:32,1,80,8|0,0:0|0:0,0:0:0:0:
225,108,135783,6,0,L|35:84,1,160,4|8,0:0|0:0,0:0:0:0:
2,212,136297,1,0,0:0:0:0:
80,267,136469,2,0,B|108:281|141:270|157:244,1,80,,,0:0:0:0:
245,276,136812,2,0,B|280:231|340:220|388:242,1,160,8|0,0:0|0:0,0:0:0:0:
337,342,137326,5,0,0:0:0:0:
248,378,137497,1,8,0:0:0:0:
159,339,137669,1,0,0:0:0:0:
142,244,137840,2,0,L|168:163,1,80,,,0:0:0:0:
298,95,138183,2,0,L|272:176,1,80,8|0,0:0|0:0,0:0:0:0:
221,37,138526,6,0,B|259:-7|326:-8|367:31,1,160,0|8,0:0|0:0,0:0:0:0:
214,131,139040,1,0,0:0:0:0:
214,131,139126,1,0,0:0:0:0:
214,131,139212,2,0,L|123:122,1,80,,,0:0:0:0:
298,95,139554,2,0,L|389:104,1,80,8|0,0:0|0:0,0:0:0:0:
495,249,139897,5,0,0:0:0:0:
408,207,140069,1,0,0:0:0:0:
326,256,140240,2,0,B|315:285|324:316|346:336,1,80,8|0,0:0|0:0,0:0:0:0:
229,206,140583,1,8,0:0:0:0:
229,206,140669,1,8,0:0:0:0:
229,206,140754,2,0,B|240:177|231:146|209:126,1,80,0|8,0:0|0:0,0:0:0:0:
121,106,141097,5,0,0:0:0:0:
121,106,141183,1,0,0:0:0:0:
121,106,141269,2,0,L|298:82,1,160,0|8,0:0|0:0,0:0:0:0:
357,28,141783,1,0,0:0:0:0:
424,95,141954,2,0,B|442:123|437:158|415:181,1,80,,,0:0:0:0:
508,214,142297,2,0,B|456:186|392:212|374:268,1,160,8|0,0:0|0:0,0:0:0:0:
296,319,142812,5,0,0:0:0:0:
222,257,142983,2,0,L|205:170,1,80,8|0,0:0|0:0,0:0:0:0:
292,39,143326,1,0,0:0:0:0:
363,103,143497,1,0,0:0:0:0:
285,160,143669,2,0,B|235:194|168:178|137:129,1,160,8|0,0:0|0:0,0:0:0:0:
79,62,144183,5,0,0:0:0:0:
20,138,144354,2,0,L|12:229,1,80,8|0,0:0|0:0,0:0:0:0:
114,285,144697,2,0,L|122:194,1,80,,,0:0:0:0:
28,310,145040,1,8,0:0:0:0:
102,371,145212,1,0,0:0:0:0:
190,334,145383,6,0,B|227:305|239:256|223:213|192:187,1,160,0|8,0:0|0:0,0:0:0:0:
303,36,145897,2,0,B|266:65|254:114|270:157|301:183,1,160,,,0:0:0:0:
365,111,146412,2,0,L|455:91,1,80,8|0,0:0|0:0,0:0:0:0:
201,46,146754,6,0,L|111:66,1,80,,,0:0:0:0:
31,194,147097,1,8,0:0:0:0:
100,260,147269,1,0,0:0:0:0:
180,207,147440,2,0,B|197:180|195:147|180:122,1,80,,,0:0:0:0:
100,260,147783,2,0,B|83:287|85:320|100:345,1,80,8|0,0:0|0:0,0:0:0:0:
185,301,148126,6,0,B|214:338|264:350|307:334|333:303,1,160,0|8,0:0|0:0,0:0:0:0:
258,242,148640,2,0,B|298:201|365:206|399:251,1,160,,,0:0:0:0:
512,136,149154,1,8,0:0:0:0:
425,175,149326,1,0,0:0:0:0:
347,119,149497,6,0,B|327:92|329:57|349:33,1,80,,,0:0:0:0:
432,75,149840,1,8,0:0:0:0:
273,170,150012,1,0,0:0:0:0:
273,170,150097,1,0,0:0:0:0:
273,170,150183,2,0,L|177:164,1,80,,,0:0:0:0:
85,111,150526,2,0,L|79:207,1,80,8|0,0:0|0:0,0:0:0:0:
31,301,150869,6,0,L|127:307,1,80,,,0:0:0:0:
219,360,151212,2,0,L|225:264,1,80,8|0,0:0|0:0,0:0:0:0:
307,233,151554,1,8,0:0:0:0:
307,233,151640,1,8,0:0:0:0:
307,233,151726,1,0,0:0:0:0:
386,286,151897,1,8,0:0:0:0:
460,225,152069,1,0,0:0:0:0:
380,172,152240,1,4,0:0:0:0:
